The Boss Baby 2017 720p CAM x264 AC3 TiTAN

  • Category Movies
  • Type h.264/x264
  • Language English
  • Total size 1.6 GB
  • Uploaded By Silmarillion
  • Downloads 20028
  • Last checked 2 weeks ago
  • Date uploaded 2 weeks ago
  • Seeders 3430
  • Leechers 1539

The Boss Baby

AnimationComedyFamily

A story about how a new baby's arrival impacts a family, told from the point of view of a delightfully unreliable narrator, a wildly imaginative 7 year old named Tim.

Infohash : E391D4DA80D0BB84262073A3F48A48275D9D9DD1



http://www.imdb.com/title/tt3874544/

A suit-wearing briefcase-carrying baby pairs up with his seven-year old brother to stop the dastardly plot of the CEO of Puppy Co.

Director: Tom McGrath
Writers: Michael McCullers, Marla Frazee (based on the book by)
Stars: Alec Baldwin, Steve Buscemi, Jimmy Kimmel
Genres: Animation | Comedy | Family
Country: USA

Source: 720p CAM -THX

General

Format : Matroska
Format version : Version 2
File size : 1.57 GiB
Duration : 1 h 37 min
Overall bit rate mode : Variable
Overall bit rate : 2 294 kb/s
Encoded date : UTC 2017-04-07 17:33:50
Writing application : mkvmerge v8.5.2 ('Crosses') 32bit
Writing library : libebml v1.3.3 + libmatroska v1.4.4

Video
ID : 1
Format : AVC
Format/Info : Advanced Video Codec
Format profile : High [email protected]
Format settings, CABAC : Yes
Format settings, ReFrames : 3 frames
Codec ID : V_MPEG4/ISO/AVC
Duration : 1 h 37 min
Bit rate mode : Variable
Bit rate : 2 100 kb/s
Maximum bit rate : 40.0 Mb/s
Width : 1 264 pixels
Height : 512 pixels
Display aspect ratio : 2.469
Frame rate mode : Constant
Frame rate : 23.976 (24000/1001) FPS
Color space : YUV
Chroma subsampling : 4:2:0
Bit depth : 10 bits
Scan type : Progressive
Bits/(Pixel*Frame) : 0.135
Stream size : 1.43 GiB (92%)
Default : Yes
Forced : No
Color range : Full
Color primaries : BT.709
Transfer characteristics : BT.709
Matrix coefficients : BT.709

Audio
ID : 2
Format : AC-3
Format/Info : Audio Coding 3
Mode extension : CM (complete main)
Format settings, Endianness : Big
Codec ID : A_AC3
Duration : 1 h 37 min
Bit rate mode : Constant
Bit rate : 192 kb/s
Channel(s) : 2 channels
Channel positions : Front: L R
Sampling rate : 44.1 kHz
Frame rate : 28.711 FPS (1536 spf)
Compression mode : Lossy
Stream size : 134 MiB (8%)
Default : Yes
Forced : No

Files:

The Boss Baby 2017 720p CAM x264 AC3 TiTAN
  • The Boss Baby 2017 720p CAM x264 AC3 TiTAN.mkv (1.6 GB)
  • The Boss Baby 2017 720p CAM x264 AC3 TiTAN.nfo (2.5 KB)
  • Torrent Downloaded From ExtraTorrent.cc.txt (0.3 KB)

Comments

Code:

  • udp://tracker.coppersurfer.tk:6969/announce
  • udp://tracker.ilibr.org:80/announce
  • udp://tracker.leechers-paradise.org:6969/announce
  • udp://tracker.pirateparty.gr:6969/announce
  • udp://tracker.ilibr.org:6969/announce
  • udp://eddie4.nl:6969/announce
  • udp://tracker.zer0day.to:1337/announce
  • udp://9.rarbg.me:2710/announce
  • udp://tracker.cuntflaps.me:6969/announce
  • udp://explodie.org:6969/announce
  • udp://tracker.grepler.com:6969/announce
  • udp://ipv4.tracker.harry.lu:80/announce
  • udp://tracker.opentrackr.org:1337/announce
  • udp://p4p.arenabg.com:1337/announce
  • udp://shadowshq.yi.org:6969/announce