Archer S08E03 Jane Doe 720p WEB x264-[MULVAcoded]

  • Category TV
  • Type HD
  • Language English
  • Total size 103.7 MB
  • Uploaded By Mulva1989
  • Downloads 531
  • Last checked 1 hour ago
  • Date uploaded 4 days ago
  • Seeders 204
  • Leechers 15
80%
April 20, 2017, 4:00 am

Archer

Archer tries to escape from jail with the help of a crazed heiress and a dysfunctional jazz quartet.

Infohash : 3E7765DB8640BE35D8B6C9BC71A6B92091FB1FA7


Archer S08E03 Jane Doe 720p WEB x264-[MULVAcoded]
http://www.imdb.com/title/tt1486217

Airdate: 2017-04-19



SEED/LEECH STATS


Archer tries to escape from jail with the help of a crazed heiress and a dysfunctional jazz quartet.

English subtitles included

Screenshots

Click to enlarge





***NOTE***
MULVAcoded encodes are now compatible with xbox 360/PS3/PS4 and most embedded TV players!
*** *** ***


Source : Archer.S08E03.1080p.WEB-DL.DD5.1.H264-RARBG

Format : MPEG-4
Format profile : Base Media
Codec ID : isom (isom/iso2/avc1/mp41)
File size : 104 MiB
Duration : 20 min 11 s
Overall bit rate mode : Variable
Overall bit rate : 718 kb/s
Writing application : Lavf56.32.100

Video
ID : 1
Format : AVC
Format/Info : Advanced Video Codec
Format profile : [email protected]
Format settings, CABAC : Yes
Format settings, ReFrames : 8 frames
Codec ID : avc1
Codec ID/Info : Advanced Video Coding
Duration : 20 min 11 s
Bit rate : 615 kb/s
Width : 1 280 pixels
Height : 720 pixels
Display aspect ratio : 16:9
Frame rate mode : Variable
Frame rate : 23.976 (24000/1001) FPS
Minimum frame rate : 23.564 FPS
Maximum frame rate : 24.390 FPS
Color space : YUV
Chroma subsampling : 4:2:0
Bit depth : 8 bits
Scan type : Progressive
Bits/(Pixel*Frame) : 0.028
Stream size : 88.8 MiB (86%)
Writing library : x264 core 148 r2705 3f5ed56
Encoding settings : cabac=1 / ref=8 / deblock=1:0:0 / analyse=0x3:0x113 / me=umh / subme=9 / psy=1 / psy_rd=1.00:0.00 / mixed_ref=1 / me_range=24 / chroma_me=1 / trellis=1 / 8x8dct=1 / cqm=0 / deadzone=21,11 / fast_pskip=1 / chroma_qp_offset=-2 / threads=6 / lookahead_threads=1 / sliced_threads=0 / nr=0 / decimate=1 / interlaced=0 / bluray_compat=0 / constrained_intra=0 / bframes=5 / b_pyramid=2 / b_adapt=2 / b_bias=0 / direct=3 / weightb=1 / open_gop=0 / weightp=2 / keyint=240 / keyint_min=23 / scenecut=40 / intra_refresh=0 / rc_lookahead=60 / rc=crf / mbtree=1 / crf=25.0 / qcomp=0.60 / qpmin=0 / qpmax=69 / qpstep=4 / ip_ratio=1.40 / aq=2:1.00

Audio
ID : 2
Format : AAC
Format/Info : Advanced Audio Codec
Format profile : LC
Codec ID : 40
Duration : 20 min 11 s
Bit rate mode : Constant
Bit rate : 96.0 kb/s
Channel(s) : 2 channels
Channel positions : Front: L R
Sampling rate : 48.0 kHz
Frame rate : 46.875 FPS (1024 spf)
Compression mode : Lossy
Stream size : 13.8 MiB (13%)
Language : English
Default : Yes
Alternate group : 1

Text
ID : 3
Format : Timed Text
Muxing mode : sbtl
Codec ID : tx3g
Duration : 19 min 30 s
Bit rate mode : Variable
Bit rate : 117 b/s
Stream size : 16.8 KiB (0%)
Language : English
Default : Yes
Forced : No
Alternate group : 3

Files:

  • Archer.S08E03.Jane.Doe.720p.WEB.x264-[MULVAcoded].mp4 (103.7 MB)

There are currently no comments. Feel free to leave one :)

Code:

  • udp://tracker.coppersurfer.tk:6969/announce
  • udp://tracker.zer0day.to:1337/announce
  • udp://tracker.opentrackr.org:1337/announce
  • udp://public.popcorn-tracker.org:6969/announce
  • udp://9.rarbg.me:2710/announce
  • udp://tracker.leechers-paradise.org:6969/announce
  • udp://tracker.grepler.com:6969/announce
  • udp://shadowshq.yi.org:6969/announce
  • udp://bt.firebit.co.uk:6969/announce
  • udp://tracker.ilibr.org:80/announce
  • udp://tracker.tiny-vps.com:6969/announce
  • udp://tracker.pirateparty.gr:6969/announce
  • udp://tracker.coppersurfer.tk:80/announce
  • udp://tracker.ilibr.org:6969/announce
  • udp://ipv4.tracker.harry.lu:80/announce