Paterson (2016).H264.Italian.English.Ac3.5.1.sub.ita.iCV-MIRCrew

  • Category Movies
  • Type h.264/x264
  • Language English
  • Total size 1.8 GB
  • Uploaded By robbyrs
  • Downloads 223
  • Last checked 1 month ago
  • Date uploaded 1 month ago
  • Seeders 71
  • Leechers 14

Infohash : D80752EA798651111342A53388231E4BA16A0EDF

Paterson (2016).H264.Italian.English.Ac3.5.1.sub.ita.iCV-MIRCrew




NO FOUND ONLY ORIGINAL RELEASE





My release is always in double track audio italian and Original audio
for select it use VLC or dvd player home
not use wmp

Paterson (2016)

PRESENTI ANCHE iSOTTOTITOLI

ESTERNI IN SRT (ita)







DATA USCITA: 29 dicembre 2016
GENERE: Drammatico, Commedia
ANNO: 2016
REGIA: Jim Jarmusch
SCENEGGIATURA: Jim Jarmusch
FOTOGRAFIA: Frederick Elmes
MONTAGGIO: Affonso Gonçalves
MUSICHE: Sqürl
PRODUZIONE: Amazon Studios, K5 Film.
DISTRIBUZIONE: CINEMA di Valerio De Paolis.
PAESE: USA
DURATA: 117 Min



ATTORI: Adam Driver, Golshifteh Farahani



Paterson guida l'autobus nell'omonima città di Paterson, nel New Jersey. Ogni giorno, segue la solita semplice routine: fa il solito percorso con l'autobus, osserva la città che vede scorrere all'esterno del parabrezza e ascolta scampoli di conversazioni che hanno luogo intorno a lui. ..............



A quiet observation of the triumphs and defeats of daily life, along with the poetry evident in its smallest details.








[spoiler]
General
Unique ID : 132137945751897216977856164042398006391 (0x6368D7B7FF8914BC9103D0DCB53C7C77)
Complete name : Paterson (2016).H264.ita.eng.sub.ita.iCV-MIRCrew.mkv
Format : Matroska
Format version : Version 2
File size : 1.81 GiB
Duration : 1h 57mn
Overall bit rate : 2 191 Kbps
Movie name : www.icv-crew.org
Encoded date : UTC 2017-04-17 11:18:07
Writing application : Lavf54.63.100
Writing library : Lavf54.63.100
COPYRIGHT : robbyrs

Video
ID : 1
Format : AVC
Format/Info : Advanced Video Codec
Format profile : [email protected]
Format settings, CABAC : Yes
Format settings, ReFrames : 2 frames
Codec ID : V_MPEG4/ISO/AVC
Duration : 1h 57mn
Bit rate : 1 290 Kbps
Width : 720 pixels
Height : 384 pixels
Display aspect ratio : 16:9
Frame rate mode : Variable
Frame rate : 23.976 fps
Color space : YUV
Chroma subsampling : 4:2:0
Bit depth : 8 bits
Scan type : Progressive
Bits/(Pixel*Frame) : 0.195
Stream size : 1.03 GiB (57%)
Writing library : x264 core 130 r2273
Encoding settings : cabac=1 / ref=2 / deblock=1:0:0 / analyse=0x1:0x131 / me=hex / subme=7 / psy=1 / psy_rd=1.00:0.00 / mixed_ref=0 / me_range=16 / chroma_me=1 / trellis=1 / 8x8dct=0 / cqm=0 / deadzone=21,11 / fast_pskip=1 / chroma_qp_offset=-2 / threads=12 / lookahead_threads=2 / sliced_threads=0 / nr=0 / decimate=1 / interlaced=0 / bluray_compat=0 / constrained_intra=0 / bframes=3 / b_pyramid=0 / b_adapt=1 / b_bias=0 / direct=3 / weightb=1 / open_gop=0 / weightp=2 / keyint=230 / keyint_min=23 / scenecut=40 / intra_refresh=0 / rc_lookahead=40 / rc=2pass / mbtree=1 / bitrate=1290 / ratetol=1.0 / qcomp=0.60 / qpmin=10 / qpmax=69 / qpstep=4 / cplxblur=20.0 / qblur=0.5 / vbv_maxrate=24000 / vbv_bufsize=24000 / nal_hrd=none / ip_ratio=1.40 / aq=1:1.00
Language : Italian
Default : Yes
Forced : No
DURATION : 01:57:58.155000000
NUMBER_OF_FRAMES : 169706
NUMBER_OF_BYTES : 7193512285
_STATISTICS_WRITING_APP : mkvmerge v8.7.0 ('All of the above') 64bit
_STATISTICS_WRITING_DATE_UTC : 2017-04-16 07:09:50
_STATISTICS_TAGS : BPS DURATION NUMBER_OF_FRAMES NUMBER_OF_BYTES

Audio #1
ID : 2
Format : AC-3
Format/Info : Audio Coding 3
Mode extension : CM (complete main)
Codec ID : A_AC3
Duration : 1h 57mn
Bit rate mode : Constant
Bit rate : 448 Kbps
Channel(s) : 6 channels
Channel positions : Front: L C R, Side: L R, LFE
Sampling rate : 48.0 KHz
Bit depth : 16 bits
Compression mode : Lossy
Delay relative to video : 1mn 5s
Stream size : 378 MiB (20%)
Title : AC3 ITA
Language : Italian
Default : Yes
Forced : No
DURATION : 01:57:58.144000000
NUMBER_OF_FRAMES : 221192
NUMBER_OF_BYTES : 396376064
_STATISTICS_WRITING_APP : mkvmerge v8.7.0 ('All of the above') 64bit
_STATISTICS_WRITING_DATE_UTC : 2017-04-16 07:09:50
_STATISTICS_TAGS : BPS DURATION NUMBER_OF_FRAMES NUMBER_OF_BYTES

Audio #2
ID : 3
Format : AC-3
Format/Info : Audio Coding 3
Mode extension : CM (complete main)
Codec ID : A_AC3
Duration : 1h 57mn
Bit rate mode : Constant
Bit rate : 448 Kbps
Channel(s) : 6 channels
Channel positions : Front: L C R, Side: L R, LFE
Sampling rate : 48.0 KHz
Bit depth : 16 bits
Compression mode : Lossy
Delay relative to video : 1mn 5s
Stream size : 378 MiB (20%)
Title : AC3 ENG
Language : English
Default : No
Forced : No
DURATION : 01:57:58.176000000
NUMBER_OF_FRAMES : 221193
NUMBER_OF_BYTES : 566254080
_STATISTICS_WRITING_APP : mkvmerge v8.7.0 ('All of the above') 64bit
_STATISTICS_WRITING_DATE_UTC : 2017-04-16 07:09:50
_STATISTICS_TAGS : BPS DURATION NUMBER_OF_FRAMES NUMBER_OF_BYTES

Text
ID : 4
Format : ASS
Codec ID : S_TEXT/ASS
Codec ID/Info : Advanced Sub Station Alpha
Compression mode : Lossless
Title : REGULAR
Language : Italian
Default : No
Forced : No
DURATION : 01:51:09.731000000
NUMBER_OF_FRAMES : 1352
NUMBER_OF_BYTES : 40271
_STATISTICS_WRITING_APP : mkvmerge v8.7.0 ('All of the above') 64bit
_STATISTICS_WRITING_DATE_UTC : 2017-04-16 07:09:50
_STATISTICS_TAGS : BPS DURATION NUMBER_OF_FRAMES NUMBER_OF_BYTES

Menu
00:00:00.000 : :00:00:00.000
00:07:05.342 : :00:07:05.342
00:14:28.201 : :00:14:28.201
00:20:13.838 : :00:20:13.838
00:29:27.099 : :00:29:27.099
00:39:02.590 : :00:39:02.590
00:50:56.804 : :00:50:56.804
00:59:52.756 : :00:59:52.756
01:08:53.129 : :01:08:53.129
01:16:19.950 : :01:16:19.950
01:25:27.706 : :01:25:27.706
01:35:23.259 : :01:35:23.259
01:45:16.300 : :01:45:16:300
01:55:01.150 : :01:55:01:150


[/spoiler]



Files:

Paterson (2016).H264.ita.eng.sub.ita.iCV-MIRCrew
  • Paterson (2016).H264.ita.eng.sub.ita.iCV-MIRCrew.ita.srt (92.4 KB)
  • Paterson (2016).H264.ita.eng.sub.ita.iCV-MIRCrew.mkv (1.8 GB)
  • Paterson (2016).H264.ita.eng.sub.ita.iCV-MIRCrew.srt (0.1 KB)
  • VISIT www.icv-crew.org.txt (0.1 KB)

There are currently no comments. Feel free to leave one :)

Code:

  • udp://tracker.coppersurfer.tk:6969/announce
  • udp://tracker.opentrackr.org:1337/announce
  • udp://tracker.leechers-paradise.org:6969/announce
  • udp://9.rarbg.com:2710/announce
  • udp://9.rarbg.to:2710/announce
  • udp://9.rarbg.me:2710/announce
  • udp://glotorrents.pw:6969/announce
  • udp://tracker.openbittorrent.com:80/announce
  • udp://tracker.pubt.net:2710/announce