Timewatch 2004-2005 - The Killer Wave of 1607

  • Category TV
  • Type HD
  • Language English
  • Total size 527.6 MB
  • Uploaded By ElsonRoa
  • Downloads 19
  • Last checked 8 hours ago
  • Date uploaded 5 days ago
  • Seeders 3
  • Leechers 1

Infohash : D612E7A91B1F7DF2AF6CF405EAD7FC718F6754CF

Timewatch 2004-2005 - The Killer Wave of 1607

9am, 20th January 1607. A massive wave devastated the counties of the Bristol Channel. It came without warning, sweeping all before it. The flooding stretched inland as far as the Glastonbury Tor. 200 square miles of Somerset, Devon, Glamorganshire and Monmouthshire were inundated. Up to 2,000 people died. Yet for 400 years, the killer wave of 1607 has been forgotten. Timewatch relives the terror and the human tragedy of 1607 and follows the research of two scientists who are increasingly convinced that the wave was not simply a freak storm but a tsunami.

(with soft subtitles)



Media info:
General
Format : MPEG-4
Format profile : Base Media
Codec ID : isom (isom/iso2/avc1/mp41)
File size : 527 MiB
Duration : 49mn 0s
Overall bit rate mode : Constant
Overall bit rate : 1 503 Kbps
Track name : The Killer Wave of 1607
Writing application : Lavf57.25.100

Video
ID : 1
Format : AVC
Format/Info : Advanced Video Codec
Format profile : [email protected]
Format settings, CABAC : Yes
Format settings, ReFrames : 2 frames
Codec ID : avc1
Codec ID/Info : Advanced Video Coding
Duration : 49mn 0s
Bit rate mode : Constant
Bit rate : 1 404 Kbps
Width : 832 pixels
Height : 468 pixels
Display aspect ratio : 16:9
Frame rate mode : Constant
Frame rate : 25.000 fps
Color space : YUV
Chroma subsampling : 4:2:0
Bit depth : 8 bits
Scan type : Progressive
Bits/(Pixel*Frame) : 0.144
Stream size : 492 MiB (93%)

Audio
ID : 2
Format : AAC
Format/Info : Advanced Audio Codec
Format profile : LC
Codec ID : 40
Duration : 48mn 59s
Bit rate mode : Constant
Bit rate : 93.5 Kbps
Channel(s) : 2 channels
Channel positions : Front: L R
Sampling rate : 48.0 KHz
Frame rate : 46.875 fps (1024 spf)
Compression mode : Lossy
Stream size : 32.8 MiB (6%)

Files:

Timewatch 2004-2005 - The Killer Wave of 1607
  • Timewatch 2004-2005 - The Killer Wave of 1607.mp4 (526.7 MB)
  • Timewatch 2004-2005 - The Killer Wave of 1607.jpg (879.8 KB)
  • About this torrent.txt (1.7 KB)
  • Timewatch 2004-2005 - The Killer Wave of 1607.srt (52.5 KB)
  • Torrent Downloaded From ExtraTorrent.cc.txt (0.0 KB)
  • Torrent Downloaded From Katcr.co - Kickasstorrents.txt (0.1 KB)

Comments

Code:

  • udp://tracker.coppersurfer.tk:6969/announce