24 Legacy S01e12[Mux - 1080p - H264 - Ita Eng Ac3 - Sub Ita Eng]

  • Category TV
  • Type HD
  • Language English
  • Total size 1.7 GB
  • Uploaded By ppb1
  • Downloads 14
  • Last checked 19 minutes ago
  • Date uploaded 3 days ago
  • Seeders 44
  • Leechers 15

Infohash : 27A61E39B434FAABA5C8603C5CA907C7F1EB5ED2



24 LEGACY
STAGIONE 1
WEB-DLMUX 1080p

Dual Language ITA - ENG
Sub ITA - ENg
Trovi tutte le nostre serie su
IL CORSARO VERDE
WWW.ICV-CREW.ORG




.: Dati Serie :.


Nazione : Stati Uniti d'America
Anno : 2017
Genere : azione, thriller
Stagione : 1
Episodi : 12
Durata : 45 min circa
Lingua : ITA - ENG
Cast :
• Corey Hawkins: Eric Carter
• Miranda Otto: Rebecca Ingram
• Anna Diop: Nicole Carter
• Teddy Sears: Keith Mullins
• Ashley Thomas: Isaac Carter
• Dan Bucatinsky: Andy Shalowitz
• Coral Peña: Mariana Stiles
• Charlie Hofheimer: Ben Grimes
• Sheila Vand: Nilaa Mizrani
• Raphael Acloque: Jadalla bin-Khalid
• Gerald McRaney: Henry Donovan
• Jimmy Smits: John Donovan
• Veronica Cartwright: Margaret Donovan

A military hero who returns to the U.S. with a whole lot of trouble following him back. With nowhere else to turn, the man asks CTU to help him save his life while also stopping one of the largest-scale terror attacks on American soil.

24: Legacy è una serie TV spin-off della serie d'azione di successo 24, creata da Joel Surnow e Robert Cochran.

Composto da 12 episodi, la serie segue le vicende di Eric Carter, interpretato da Corey Hawkins, che dopo aver guidato una squadra dell'esercito statunitense per eliminare il leader terrorista Ibrahim Bin-Khalid. Appena tornato a casa scopre che i seguaci del suo rivale hanno messo in atto un complotto contro di lui, i suoi compagni e le rispettive famiglie. Da qui una corsa contro il tempo per fermare un nuovo pericoloso attacco terroristico!

Come per 24, la caratteristica di questa serie sta nel tipo di narrazione adottato: vengono infatti raccontati gli eventi in tempo reale con la tecnica dello split screen (lo schermo diviso che dà più punti di vista) in modo da raccontare contemporaneamente le azioni di più personaggi.

Ambientata circa tre anni dopo gli eventi narrati nella miniserie sequel 24: Live Another Day, il cast comprende anche Miranda Otto che interpreta Rebecca Ingram, l'ex capo della CTU (Counter Terrorist Unit) a Washington, Jimmy Smits alias John Donovan, senatore e marito di Rebecca e Teddy Sears che interpreta Keith Mullins, il capo della CTU che in precedenza ha lavorato sotto Rebecca.

.: Screenshot :.





.: Caratteristiche Tecniche :.



[spoiler]

24.Legacy.1x01.ITA.ENG.1080p.WEB-DLMux.H264-Morpheus.mkv
Format                                   : Matroska
Format version                           : Version 4 / Version 2
File size                                : 1.73 GiB
Duration                                 : 42mn 8s
Overall bit rate                         : 5 871 Kbps
Encoded date                             : UTC 2017-03-02 23:13:27
Writing application                      : mkvmerge v7.6.0 ('Garden of Dreams') 64bit built on Feb  8 2015 15:12:28
Writing library                          : libebml v1.3.1 + libmatroska v1.4.2
DURATION                                 : 00:42:05.866000000
NUMBER_OF_FRAMES                         : 72520
NUMBER_OF_BYTES                          : 60620800
_STATISTICS_WRITING_APP                  : mkvmerge v7.6.0 ('Garden of Dreams') 64bit built on Feb  8 2015 15:12:28
_STATISTICS_WRITING_DATE_UTC             : 2017-03-02 23:13:27
_STATISTICS_TAGS                         : BPS DURATION NUMBER_OF_FRAMES NUMBER_OF_BYTES

Video
ID                                       : 1
Format                                   : AVC
Format/Info                              : Advanced Video Codec
Format profile                           : [email protected]
Format settings, CABAC                   : Yes
Format settings, ReFrames                : 4 frames
Codec ID                                 : V_MPEG4/ISO/AVC
Duration                                 : 42mn 8s
Bit rate                                 : 5 178 Kbps
Width                                    : 1 920 pixels
Height                                   : 1 080 pixels
Display aspect ratio                     : 16:9
Frame rate                               : 25.000 fps
Color space                              : YUV
Chroma subsampling                       : 4:2:0
Bit depth                                : 8 bits
Scan type                                : Progressive
Bits/(Pixel*Frame)                       : 0.100
Stream size                              : 1.52 GiB (88%)
Language                                 : English
Default                                  : Yes
Forced                                   : No
Color primaries                          : BT.709-5, BT.1361, IEC 61966-2-4, SMPTE RP177
Transfer characteristics                 : BT.709-5, BT.1361
Matrix coefficients                      : BT.709-5, BT.1361, IEC 61966-2-4 709, SMPTE RP177

Audio #1
ID                                       : 2
Format                                   : AC-3
Format/Info                              : Audio Coding 3
Mode extension                           : CM (complete main)
Codec ID                                 : A_AC3
Duration                                 : 42mn 8s
Bit rate mode                            : Constant
Bit rate                                 : 192 Kbps
Channel(s)                               : 2 channels
Channel positions                        : Front: L R
Sampling rate                            : 44.1 KHz
Bit depth                                : 16 bits
Compression mode                         : Lossy
Delay relative to video                  : 1ms
Stream size                              : 57.9 MiB (3%)
Title                                    : ITA
Language                                 : Italian
Default                                  : Yes
Forced                                   : Yes

Audio #2
ID                                       : 3
Format                                   : AC-3
Format/Info                              : Audio Coding 3
Mode extension                           : CM (complete main)
Codec ID                                 : A_AC3
Duration                                 : 42mn 8s
Bit rate mode                            : Constant
Bit rate                                 : 384 Kbps
Channel(s)                               : 6 channels
Channel positions                        : Front: L C R, Side: L R, LFE
Sampling rate                            : 48.0 KHz
Bit depth                                : 16 bits
Compression mode                         : Lossy
Delay relative to video                  : 16ms
Stream size                              : 116 MiB (7%)
Title                                    : ENG
Language                                 : English
Default                                  : No
Forced                                   : No

Text #1
ID                                       : 4
Format                                   : UTF-8
Codec ID                                 : S_TEXT/UTF8
Codec ID/Info                            : UTF-8 Plain Text
Title                                    : ITA - Forced
Language                                 : Italian
Default                                  : Yes
Forced                                   : Yes

Text #2
ID                                       : 5
Format                                   : UTF-8
Codec ID                                 : S_TEXT/UTF8
Codec ID/Info                            : UTF-8 Plain Text
Language                                 : Italian
Default                                  : No
Forced                                   : No

Text #3
ID                                       : 6
Format                                   : UTF-8
Codec ID                                 : S_TEXT/UTF8
Codec ID/Info                            : UTF-8 Plain Text
Language                                 : English
Default                                  : No
Forced                                   : No

Text #4
ID                                       : 7
Format                                   : UTF-8
Codec ID                                 : S_TEXT/UTF8
Codec ID/Info                            : UTF-8 Plain Text
Title                                    : SDH
Language                                 : English
Default                                  : No
Forced                                   : No


[/spoiler]

.: Ringraziamenti :.




RESTATE IN SEED ALTRIMENTI




[/hide]

Files:

  • 24.Legacy.1x12.11.00.p.m.-12.00.p.m.ITA.ENG.1080p.WEB-DLMux.H264-Morpheus.mkv (1.7 GB)

There are currently no comments. Feel free to leave one :)

Code:

  • http://tracker.tntvillage.scambioetico.org:2710/announce
  • udp://tracker.opentrackr.org:1337/announce
  • udp://9.rarbg.me:2710/announce
  • udp://torrent.gresille.org:80/announce
  • http://mgtracker.org:2710/announce
  • udp://tracker.leechers-paradise.org:6969/announce
  • http://tracker.tfile.me/announce
  • udp://explodie.org:6969/announce