Gotham.3x13.La.Notte.Del.Risveglio.ITA.ENG.1080p.WEB-DLMux.H264-L...

  • Category TV
  • Type HD
  • Language English
  • Total size 1.7 GB
  • Uploaded By ppb1
  • Downloads 33
  • Last checked 16 minutes ago
  • Date uploaded 3 days ago
  • Seeders 60
  • Leechers 16
90%
January 24, 2017, 2:00 am

Gotham

On the run from Gordon and Bullock, Dwight tries to revive Jerome and, in turn, activates his acolytes around Gotham City. Meanwhile, Selina's mom's intentions in Gotham are revealed, and the power play between Penguin and Nygma escalates as Barbara's plans are set in place.

Infohash : 475E104C7EDDF329946A3A6CB50A837196876A9C



GOTHAM[
STAGIONE 3
WEB-DLMUX 1080p

Dual Language ITA - ENG
Sub ITA - ENG
Trovi tutte le nostre serie su
IL CORSARO VERDE
www.icv-crew.org




.: Dati Serie :.


Nazione : Stati Uniti d'America
Anno : 2014 – in produzione
Genere : azione, noir, poliziesco, thriller, drammatico, fantascienza
Stagione : 3
Episodi : 22
Durata : 45 min circa
Lingua : ITA - ENG
Cast :
• Benjamin McKenzie: James "Jim" Gordon
• Donal Logue: Harvey Bullock
• Robin Lord Taylor: Oswald "Pinguino" Cobblepot
• David Mazouz: Bruce Wayne
• Sean Pertwee: Alfred Pennyworth
• Zabryna Guevara: Sarah Essen
• Erin Richards: Barbara Kean
• Camren Bicondova: Selina "Cat" Kyle
• Cory Michael Smith: Edward Nygma
• Cameron Monaghan: Jerome Valeska
• Victoria Cartagena: Renee Montoya
• Andrew Stewart Jones: Crispus Allen
• John Doman: Carmine Falcone
• Jada Pinkett Smith: Fish Mooney
• Morena Baccarin: Leslie Thompkins
• Drew Powell: Butch Gilzean

The story behind Detective James Gordon's rise to prominence in Gotham City in the years before Batman's arrival.

“Città folle” (Mad City) e “Città caduta” (Fallen City), questi i sottotitoli dei rispettivi primi 14 e secondi 8 episodi della terza stagione di Gotham; per un totale di 22 esilaranti puntate, che renderanno questa nuova stagione unica ed imperdibile!

Nel cast principale entreranno anche Benedict Samuel (nei panni di Jervis Tetch) e Maggie Geha (Ivy Pepper).

Alla fine della precedente stagione avevamo lasciato Gotham City nel caos più totale e ora la situazione non è di certo migliorata: la città è infestata dai mostri di Indian Hill, i quali sono sotto il comando di Fish Mooney (Jada Pinkett Smith), resuscitata. Gordon (Ben McKenzie) è alle prese con numerosi problemi personali e Oswald Cobblepot (Robin Lord Taylor), di nuovo a capo della malavita in città, accusa la polizia di non fare abbastanza.
Il giovane Bruce (David Mazouz), tornato a casa con Alfred (Sean Pertwee), si reca alla Wayne Enterprise per discutere con i membri del consiglio di questioni precedentemente lasciate irrisolte e per dir loro di essere venuto a conoscenza del piano del Consiglio Segreto: ucciderlo. Tutto ciò, ovviamente, avrà le sue conseguenze …

Nel frattempo Leslie (Morena Baccarin) torna a Gotham City, dopo aver iniziato una relazione con il figlio di Carmine Falcone (John Doman). Inoltre Gordon viene coinvolto dalle vicende squilibrate di Jervis Tetch, l’ipnotizzatore, arrivato in città per cercare la sorella Alice, scomparsa da tempo.


La serie televisiva, di origine statunitense del 2014, è stata ideata da Bruno Heller, con Danny Cannon e John Stephens. Essa rappresenta il prequel\spin-off dell’universo di Batman, mostrando una giovane Gotham City, già attraversata da numerose vicissitudini.
La colonna sonora che la accompagna è di Graeme Revell e David E. Russo.

Appassionati di Batman, amanti delle vicende di Gordon e Bruce e curiosi delle vicende di Gotham City saranno accontentati, ammirando una gloriosa nuova stagione come mai vista prima!



.: Screenshot :.





.: Caratteristiche Tecniche :.

[spoiler]

Gotham.3x01.Il.Cacciatore.Di.Taglie.ITA.ENG.1080p.WEB-DLMux.H.264-LittleLinX.mkv
Format                                   : Matroska
Format version                           : Version 4 / Version 2
File size                                : 1.75 GiB
Duration                                 : 42mn 19s
Overall bit rate                         : 5 924 Kbps
Encoded date                             : UTC 2017-02-15 23:26:11
Writing application                      : mkvmerge v7.6.0 ('Garden of Dreams') 64bit built on Feb  8 2015 15:12:28
Writing library                          : libebml v1.3.1 + libmatroska v1.4.2
DURATION                                 : 00:42:19.488000000
NUMBER_OF_FRAMES                         : 79359
NUMBER_OF_BYTES                          : 60947712
_STATISTICS_WRITING_APP                  : mkvmerge v7.6.0 ('Garden of Dreams') 64bit built on Feb  8 2015 15:12:28
_STATISTICS_WRITING_DATE_UTC             : 2017-02-15 23:26:11
_STATISTICS_TAGS                         : BPS DURATION NUMBER_OF_FRAMES NUMBER_OF_BYTES

Video
ID                                       : 1
Format                                   : AVC
Format/Info                              : Advanced Video Codec
Format profile                           : [email protected]
Format settings, CABAC                   : Yes
Format settings, ReFrames                : 4 frames
Codec ID                                 : V_MPEG4/ISO/AVC
Duration                                 : 42mn 19s
Bit rate                                 : 5 230 Kbps
Width                                    : 1 916 pixels
Height                                   : 1 072 pixels
Display aspect ratio                     : 16:9
Frame rate                               : 25.000 fps
Color space                              : YUV
Chroma subsampling                       : 4:2:0
Bit depth                                : 8 bits
Scan type                                : Progressive
Bits/(Pixel*Frame)                       : 0.102
Stream size                              : 1.55 GiB (88%)
Language                                 : English
Default                                  : Yes
Forced                                   : No
Color primaries                          : BT.709-5, BT.1361, IEC 61966-2-4, SMPTE RP177
Transfer characteristics                 : BT.709-5, BT.1361
Matrix coefficients                      : BT.709-5, BT.1361, IEC 61966-2-4 709, SMPTE RP177

Audio #1
ID                                       : 2
Format                                   : AC-3
Format/Info                              : Audio Coding 3
Mode extension                           : CM (complete main)
Codec ID                                 : A_AC3
Duration                                 : 42mn 19s
Bit rate mode                            : Constant
Bit rate                                 : 192 Kbps
Channel(s)                               : 2 channels
Channel positions                        : Front: L R
Sampling rate                            : 48.0 KHz
Bit depth                                : 16 bits
Compression mode                         : Lossy
Stream size                              : 58.1 MiB (3%)
Title                                    : ITA
Language                                 : Italian
Default                                  : Yes
Forced                                   : Yes

Audio #2
ID                                       : 3
Format                                   : AC-3
Format/Info                              : Audio Coding 3
Mode extension                           : CM (complete main)
Codec ID                                 : A_AC3
Duration                                 : 42mn 19s
Bit rate mode                            : Constant
Bit rate                                 : 384 Kbps
Channel(s)                               : 6 channels
Channel positions                        : Front: L C R, Side: L R, LFE
Sampling rate                            : 48.0 KHz
Bit depth                                : 16 bits
Compression mode                         : Lossy
Stream size                              : 116 MiB (6%)
Title                                    : ENG
Language                                 : English
Default                                  : No
Forced                                   : No

Text #1
ID                                       : 4
Format                                   : UTF-8
Codec ID                                 : S_TEXT/UTF8
Codec ID/Info                            : UTF-8 Plain Text
Title                                    : ITA - Forced
Language                                 : Italian
Default                                  : Yes
Forced                                   : Yes

Text #2
ID                                       : 5
Format                                   : UTF-8
Codec ID                                 : S_TEXT/UTF8
Codec ID/Info                            : UTF-8 Plain Text
Language                                 : Italian
Default                                  : No
Forced                                   : No

Text #3
ID                                       : 6
Format                                   : UTF-8
Codec ID                                 : S_TEXT/UTF8
Codec ID/Info                            : UTF-8 Plain Text
Language                                 : English
Default                                  : No
Forced                                   : No


[/spoiler]

.: Seed :.

500 kb/s 24 ore al giorno

.: Ringraziamenti :.





RESTATE IN SEED ALTRIMENTI



Files:

  • Gotham.3x13.La.Notte.Del.Risveglio.ITA.ENG.1080p.WEB-DLMux.H264-LittleLinX.mkv (1.7 GB)

There are currently no comments. Feel free to leave one :)

Code:

  • http://tracker.tntvillage.scambioetico.org:2710/announce
  • udp://tracker.opentrackr.org:1337/announce
  • udp://9.rarbg.me:2710/announce
  • udp://torrent.gresille.org:80/announce
  • http://mgtracker.org:2710/announce
  • udp://tracker.leechers-paradise.org:6969/announce
  • http://tracker.tfile.me/announce
  • udp://explodie.org:6969/announce